UKTV - The American Invasion (2014)

Language: English

Category: Entertainment


Posted on 2014-06-10, by supnatural.

Description


http://i62.fastpic.ru/big/2014/0609/85/dcf702862b0b12989af02cf239544e85.jpg
UKTV - The American Invasion (2014)
HDTV | 1280x720 | .MP4/AVC @ 3000 Kbps | 54mn 2s | Audio: English AAC 160 kbps, 2 channels | Subs: English | 1.17 GiB
Genre: Documentary

"The arrival in Britain of the aircraft and crews of the US air force the largest air force in the world - had a profound effect on the military and social history of World War Two. Presented by renowned actor Michael Brandon, this revealing documentary provides a powerful record of a momentous period in American and British history. The memories and experiences of the local population and surviving US airmen provide the key to understanding the courage of men plucked from home and plunged into the terror of combat in the air."

General
Complete name : UKTV.The.American.Invasion.mp4
Format : MPEG-4
Format profile : Base Media
Codec ID : isom
File size : 1.17 GiB
Duration : 54mn 2s
Overall bit rate mode : Variable
Overall bit rate : 3 112 Kbps

Video
ID : 1
Format : AVC
Format/Info : Advanced Video Codec
Format profile : High@L4.1
Format settings, CABAC : Yes
Format settings, ReFrames : 4 frames
Codec ID : avc1
Codec ID/Info : Advanced Video Coding
Duration : 54mn 2s
Bit rate : 3 000 Kbps
Maximum bit rate : 14.5 Mbps
Width : 1 280 pixels
Height : 720 pixels
Display aspect ratio : 16:9
Frame rate mode : Constant
Frame rate : 25.000 fps
Color space : YUV
Chroma subsampling : 4:2:0
Bit depth : 8 bits
Scan type : Progressive
Bits/(Pixel*Frame) : 0.130
Stream size : 1.11 GiB (95%)
Encoding settings : cabac=1 / ref=1 / deblock=1:0:0 / analyse=0x3:0x113 / me=hex / subme=2 / psy=1 / psy_rd=1.00:0.00 / mixed_ref=0 / me_range=16 / chroma_me=1 / trellis=0 / 8x8dct=1 / cqm=0 / deadzone=21,11 / fast_pskip=1 / chroma_qp_offset=0 / threads=3 / lookahead_threads=1 / sliced_threads=0 / nr=0 / decimate=1 / interlaced=0 / bluray_compat=0 / constrained_intra=0 / bframes=3 / b_pyramid=2 / b_adapt=1 / b_bias=0 / direct=1 / weightb=1 / open_gop=0 / weightp=1 / keyint=250 / keyint_min=25 / scenecut=40 / intra_refresh=0 / rc_lookahead=10 / rc=abr / mbtree=1 / bitrate=3000 / ratetol=1.0 / qcomp=0.60 / qpmin=0 / qpmax=69 / qpstep=4 / vbv_maxrate=62500 / vbv_bufsize=78125 / nal_hrd=none / ip_ratio=1.40 / aq=1:1.00
Encoded date : UTC 2014-05-30 17:21:57
Tagged date : UTC 2014-05-31 23:33:52
Color primaries : BT.709-5, BT.1361, IEC 61966-2-4, SMPTE RP177
Transfer characteristics : BT.709-5, BT.1361
Matrix coefficients : BT.709-5, BT.1361, IEC 61966-2-4 709, SMPTE RP177

Audio
ID : 2
Format : AAC
Format/Info : Advanced Audio Codec
Format profile : LC
Codec ID : 40
Duration : 54mn 2s
Bit rate mode : Variable
Bit rate : 160 Kbps
Maximum bit rate : 232 Kbps
Channel(s) : 2 channels
Channel positions : Front: L R
Sampling rate : 48.0 KHz
Compression mode : Lossy
Delay relative to video : -12s 0ms
Stream size : 61.8 MiB (5%)
Encoded date : UTC 2014-05-31 23:33:49
Tagged date : UTC 2014-05-31 23:33:52

Text
ID : 3
Format : Timed text
Codec ID : tx3g
Duration : 53mn 18s
Bit rate mode : Variable
Bit rate : 311 bps
Delay relative to video : -12s 0ms
Stream size : 121 KiB (0%)
Encoded date : UTC 2014-05-31 23:33:51
Tagged date : UTC 2014-05-31 23:33:52
Screenshots:

http://i64.fastpic.ru/big/2014/0609/e5/fddc8344e3006c4e2517ae19a71cbbe5.jpghttp://i61.fastpic.ru/big/2014/0609/94/7f08be8023a1fdfbc247ba2032d8dd94.jpg


DOWNLOAD:
Buy Premium To Support Me & Get Resumable Support & Max Speed


Links are Interchangeable - No Password

Sponsored High Speed Downloads
9836 dl's @ 3402 KB/s
Download Now [Full Version]
9207 dl's @ 2188 KB/s
Download Link 1 - Fast Download
6025 dl's @ 3934 KB/s
Download Mirror - Direct Download



Search More...
UKTV - The American Invasion (2014)

Search free ebooks in ebookee.com!


Links
Download this book

No active download links here?
Please check the description for download links if any or do a search to find alternative books.


Related Books

  1. Ebooks list page : 27532
  2. 2014-06-10UKTV - The American Invasion (2014) 720p HDTV x264 AAC-MVGroup
  3. 2014-06-01PBS - The American Invasion (2014)
  4. 2012-06-07Retreat, Hell! We Just Got Here: The American Expeditionary Force in France 1917-18 (Osprey General Military) - Removed
  5. 2012-06-03Achtung Panzer: The German Invasion of France and the Low Countries (Concord 7041)
  6. 2012-06-03September Storm: The German Invasion of Poland (Concord #6510)
  7. 2012-05-20Over There!: The American Soldier in World War I (The G.I.Series #7)
  8. 2012-01-11Word Histories and Mysteries: From Abracadabra to Zeus - Editors Of The American Heritage Dictionaries
  9. 2012-01-08Word Histories and Mysteries: From Abracadabra to Zeus - Editors Of The American Heritage Dictionaries
  10. 2011-11-08The American Rhetorical Construction of the Iranian Nuclear Threat
  11. 2011-10-15The American Heritage Book of English Usage
  12. 2011-05-21The American Heritage Book of English Usage: A Practical and Authoritative Guide to Contemporary English
  13. 2018-01-03[PDF] Quebec 1775: The American invasion of Canada (Campaign)
  14. 2014-04-07Quebec 1775. The American invasion of Canada (Osprey Campaign 128)
  15. 2009-07-17Quebec 1775: The American invasion of Canada (Campaign)
  16. 2012-05-16The Sniper at War: From the American Revolutionary War to the Present Day
  17. 2011-08-03American Heritage Dictionary of the English Language
  18. 2008-01-04American Heritage Dictionary of the English Language
  19. 2008-01-04American Heritage Dictionary of the English Language
  20. 2018-11-15The Americans at D-Day The American Experience at the Normandy Invasion [Audiobook]

Comments

No comments for "UKTV - The American Invasion (2014)".


    Add Your Comments
    1. Download links and password may be in the description section, read description carefully!
    2. Do a search to find mirrors if no download links or dead links.

    required

    required, will not be published

    need login

    required

    Not clear? Click here to refresh.

    Back to Top